开启辅助访问
QQ登录 只需一步,快速开始
扫一扫,访问微社区
立即注册 找回密码
查看: 13147|回复: 279
上一主题 下一主题
[4K视频]

[测试片段][3m37s][4096x2304][时光流逝-迪拜的5天][0.68G][百度盘]

  [复制链接]
跳转到指定楼层
楼主
发表于 2015-2-27 11:51 | 只看该作者 |只看大图 回帖奖励 |倒序浏览 |阅读模式
[测试片段][3m37s][4096x2304][时光流逝-迪拜的5天][0.68G][百度盘]


D:\4K  4096p 2160p 3840p  UHD\Timelapse - 5 days in Dubai 4K.mp4
    General
       Complete name : D:\4k  4096p 2160p 3840p  UHD\Timelapse - 5 days in Dubai 4K.mp4
       Format : MPEG-4
       Format profile : Base Media / Version 2
       Codec ID : mp42
       File size : 686 MiB
       Duration : 3mn 37s
       Overall bit rate mode : Variable
       Overall bit rate : 26.5 Mbps
       Encoded date : UTC 2013-04-04 21:42:05
       Tagged date : UTC 2013-04-04 21:42:05
       gsst : 0
       gstd : 217546
       gssd : B4A7DD501HH1369096176612883
       gshh : r1---sn-o097zuee.c.youtube.com
    Video #1
       ID : 1
       Format : AVC
       Format/Info : Advanced Video Codec
       Format profile : High@L5.1
       Format settings, CABAC : No
       Format settings, ReFrames : 1 frame
       Codec ID : avc1
       Codec ID/Info : Advanced Video Coding
       Duration : 3mn 37s
       Bit rate : 26.3 Mbps
       Maximum bit rate : 72.6 Mbps
       Width : 4 096 pixels
       Height : 2 304 pixels
       Display aspect ratio : 16:9
       Frame rate mode : Constant
       Frame rate : 25.000 fps
       Color space : YUV
       Chroma subsampling : 4:2:0
       Bit depth : 8 bits
       Scan type : Progressive
       Bits/(Pixel*Frame) : 0.111
       Stream size : 681 MiB (99%)
       Tagged date : UTC 2013-04-04 21:43:03
    Audio #2
       ID : 2
       Format : AAC
       Format/Info : Advanced Audio Codec
       Format profile : LC
       Codec ID : 40
       Duration : 3mn 37s
       Bit rate mode : Variable
       Bit rate : 192 Kbps
       Maximum bit rate : 203 Kbps
       Channel count : 2 channels
       Channel positions : Front: L R
       Sampling rate : 44.1 KHz
       Compression mode : Lossy
       Stream size : 4.98 MiB (1%)
       Title : IsoMedia File Produced by Google, 5-11-2011
       Encoded date : UTC 2013-04-04 21:42:54
       Tagged date : UTC 2013-04-04 21:43:03


下载地址:
游客,如果您要查看本帖隐藏内容请回复
推荐
发表于 2015-2-27 12:27 | 只看该作者
谢谢楼主分享
回复 支持 9 反对 2 使用道具 举报
推荐
发表于 2015-2-27 12:18 | 只看该作者
精华内容,楼主V5!
回复 支持 8 反对 2 使用道具 举报
推荐
发表于 2015-3-4 09:01 | 只看该作者
感谢分享,ZNDS有你更精彩:)
回复 支持 9 反对 0 使用道具 举报
推荐
发表于 2015-2-28 12:36 | 只看该作者
重力加速度
回复 支持 4 反对 0 使用道具 举报
推荐
发表于 2015-2-28 11:12 | 只看该作者
谢谢楼主分享
回复 支持 1 反对 0 使用道具 举报
推荐
发表于 2015-2-27 14:24 | 只看该作者
谢谢,迪拜的片子收了不少了
回复 支持 1 反对 0 使用道具 举报
8#
发表于 2015-2-28 13:22 | 只看该作者
很给力,ZNDS有你更精彩!
回复 支持 反对 使用道具 举报
9#
发表于 2015-2-28 13:25 | 只看该作者
强烈支持楼主ing……
回复 支持 反对 使用道具 举报
10#
发表于 2015-2-28 15:10 | 只看该作者
谢谢分享~~~
回复 支持 反对 使用道具 举报
11#
发表于 2015-2-28 23:22 | 只看该作者
很给力,ZNDS有你更精彩!
回复 支持 反对 使用道具 举报
您需要登录后才可以回帖 登录 | 立即注册
本版积分规则
关闭

推荐应用 上一条 /6 下一条

Archiver|新帖|标签|软件|Sitemap|ZNDS优乐国际youle88官网 ( 浙ICP备14000780号 )
增值电信业务经营许可证:浙B2-20150411 丨 浙公网安备 33010802006145号 浙网文(2016)6491-366号 | GMT+8, 2017-10-19 20:43 , Processed in 0.060903 second(s), 17 queries , MemCache On.
Powered by Discuz! 监督举报:report#znds.com (请将#替换为@) © 2007-2017 ZNDS.Com
快速回复 返回顶部 返回列表

youle88

百度360搜索搜狗搜索