开启辅助访问
QQ登录 只需一步,快速开始
扫一扫,访问微社区
立即注册 找回密码
查看: 30885|回复: 370
上一主题 下一主题
[4K视频]

[稀有资源]全球首发4K动画 -花色ヘプタグラム 动漫迷收藏

  [复制链接]
跳转到指定楼层
楼主
发表于 2014-3-14 15:23 | 只看该作者 |只看大图 回帖奖励 |倒序浏览 |阅读模式
全球首发4K花色动画 -花色ヘプタグラム 动漫迷收藏4K精品
[稀有资源]全球首发4K动画 -花色ヘプタグラム 动漫迷收藏

[稀有资源]全球首发4K动画 -花色ヘプタグラム 动漫迷收藏

G:\[4K] 花色ヘプタグラム .mp4
  General
    Complete name : G:\[4K] 花色ヘプタグラム .mp4
    Format : MPEG-4
    Format profile : Base Media / Version 2
    Codec ID : mp42
    File size : 386 MiB
    Duration : 1mn 52s
    Overall bit rate mode : Variable
    Overall bit rate : 28.8 Mbps

    gsst : 0
    gstd : 112640
    gssd : BADC23BE2HH1372572646200981
    gshh : r8---sn-3pm7enel.c.youtube.com
  Video #1
    ID : 1
    Format : AVC
    Format/Info : Advanced Video Codec
    Format profile : High@L5.1
    Format settings, CABAC : No
    Format settings, ReFrames : 1 frame
    Codec ID : avc1
    Codec ID/Info : Advanced Video Coding
    Duration : 1mn 52s
    Bit rate : 28.6 Mbps
    Maximum bit rate : 48.3 Mbps
    Width : 3 840 pixels
    Height : 2 160 pixels
    Display aspect ratio : 16:9
    Frame rate mode : Constant
    Frame rate : 30.000 fps
    Color space : YUV
    Chroma subsampling : 4:2:0
    Bit depth : 8 bits
    Scan type : Progressive
    Bits/(Pixel*Frame) : 0.115
    Stream size : 383 MiB (99%)

  Audio #2
    ID : 2
    Format : AAC
    Format/Info : Advanced Audio Codec
    Format profile : LC
    Codec ID : 40
    Duration : 1mn 52s
    Bit rate mode : Variable
    Bit rate : 192 Kbps
    Maximum bit rate : 202 Kbps
    Channel(s) : 2 channels
    Channel positions : Front: L R
    Sampling rate : 44.1 KHz
    Compression mode : Lossy
    Stream size : 2.57 MiB (1%)
链接: http://pan.baidu.com/s/1jGmfP6e 密码: nnbf

推荐
发表于 2014-3-14 20:22 | 只看该作者
64555555555555555555555555555555555555555
回复 支持 10 反对 2 使用道具 举报
推荐
发表于 2014-3-14 20:21 | 只看该作者
2311111111111111111111111111111
回复 支持 11 反对 0 使用道具 举报
推荐
发表于 2014-3-14 20:42 | 只看该作者
4K資源,來者不拒.
回复 支持 2 反对 0 使用道具 举报
5#
发表于 2014-3-16 19:31 | 只看该作者
全球首发4K动画 -花色ヘプタグラム 动漫迷收藏 [修改]
高级模式
回复 支持 反对 使用道具 举报
6#
发表于 2014-3-20 13:42 | 只看该作者
弟弟顶顶顶顶顶顶顶顶顶顶
回复 支持 反对 使用道具 举报
7#
发表于 2014-3-20 19:09 | 只看该作者
楼主啊红人
回复 支持 反对 使用道具 举报
8#
发表于 2014-3-20 20:20 | 只看该作者
好东西 顶一个
回复 支持 反对 使用道具 举报
9#
发表于 2014-3-26 12:54 | 只看该作者
感谢分享
回复 支持 反对 使用道具 举报
10#
发表于 2014-3-26 13:07 | 只看该作者
感谢分享
回复 支持 反对 使用道具 举报
您需要登录后才可以回帖 登录 | 立即注册
本版积分规则
关闭

推荐应用 上一条 /6 下一条

Archiver|新帖|标签|软件|Sitemap|ZNDS优乐国际youle88官网 ( 浙ICP备14000780号 )
增值电信业务经营许可证:浙B2-20150411 丨 浙公网安备 33010802006145号 浙网文(2016)6491-366号 | GMT+8, 2017-11-25 04:07 , Processed in 0.049623 second(s), 7 queries , MemCache On.
Powered by Discuz! 监督举报:report#znds.com (请将#替换为@) © 2007-2017 ZNDS.Com
快速回复 返回顶部 返回列表

youle88

百度360搜索搜狗搜索