开启辅助访问
QQ登录 只需一步,快速开始
扫一扫,访问微社区
立即注册 找回密码
查看: 11069|回复: 105
上一主题 下一主题
[1080P短片]

[高清短片] IMAX倒计时 (AC-3 5.1环绕声)[1080P/MP4/70.7MB]

  [复制链接]
跳转到指定楼层
楼主
发表于 2017-3-31 23:16 | 只看该作者 |只看大图 回帖奖励 |倒序浏览 |阅读模式
[高清短片] IMAX倒计时 (AC-3 5.1环绕声)[1080P/MP4/70.7MB]
[高清短片] IMAX倒计时 (AC-3 5.1环绕声)[1080P/MP4/70.7MB] [高清短片] IMAX倒计时 (AC-3 5.1环绕声)[1080P/MP4/70.7MB] [高清短片] IMAX倒计时 (AC-3 5.1环绕声)[1080P/MP4/70.7MB] [高清短片] IMAX倒计时 (AC-3 5.1环绕声)[1080P/MP4/70.7MB] [高清短片] IMAX倒计时 (AC-3 5.1环绕声)[1080P/MP4/70.7MB] [高清短片] IMAX倒计时 (AC-3 5.1环绕声)[1080P/MP4/70.7MB] [高清短片] IMAX倒计时 (AC-3 5.1环绕声)[1080P/MP4/70.7MB] [高清短片] IMAX倒计时 (AC-3 5.1环绕声)[1080P/MP4/70.7MB] [高清短片] IMAX倒计时 (AC-3 5.1环绕声)[1080P/MP4/70.7MB]
General
Complete name : IMAX_Countdown_SS_A_1080p.mp4
Format : MPEG-4
Format profile : Base Media
Codec ID : isom (isom/iso2/avc1/mp41)
File size : 70.7 MiB
Duration : 48 s 32 ms
Overall bit rate : 12.3 Mbps
Encoded date : UTC 2016-11-14 22:17:23
Tagged date : UTC 2016-11-14 22:17:23
Writing application : Lavf54.63.104

Video
ID : 1
Format : AVC
Format/Info : Advanced Video Codec
Format profile : High@L4
Format settings, CABAC : Yes
Format settings, ReFrames : 2 frames
Codec ID : avc1
Codec ID/Info : Advanced Video Coding
Duration : 48 s 0 ms
Bit rate : 12.0 Mbps
Width : 1920 pixels
Height : 1080 pixels
Display aspect ratio : 16:9
Frame rate mode : Constant
Frame rate : 24.000 FPS
Color space : YUV
Chroma subsampling : 4:2:0
Bit depth : 8 bits
Scan type : Progressive
Bits/(Pixel*Frame) : 0.241
Stream size : 67.0 MiB (95%)
Writing library : x264 core 129
Encoding settings : cabac=1 / ref=2 / deblock=1:0:0 / analyse=0x3:0x113 / me=hex / subme=6 / psy=1 / psy_rd=1.00:0.00 / mixed_ref=1 / me_range=16 / chroma_me=1 / trellis=0 / 8x8dct=1 / cqm=0 / deadzone=21,11 / fast_pskip=1 / chroma_qp_offset=-2 / threads=4 / lookahead_threads=1 / sliced_threads=0 / nr=0 / decimate=1 / interlaced=0 / bluray_compat=0 / constrained_intra=0 / bframes=0 / weightp=2 / keyint=250 / keyint_min=25 / scenecut=40 / intra_refresh=0 / rc_lookahead=40 / rc=2pass / mbtree=1 / bitrate=12000 / ratetol=1.0 / qcomp=0.60 / qpmin=10 / qpmax=51 / qpstep=4 / cplxblur=20.0 / qblur=0.5 / ip_ratio=1.41 / aq=1:1.00
Encoded date : UTC 2016-11-14 22:17:23
Tagged date : UTC 2016-11-14 22:17:23

Audio
ID : 2
Format : AC-3
Format/Info : Audio Coding 3
Format settings, Endianness : Big
Codec ID : ac-3
Duration : 48 s 32 ms
Bit rate mode : Constant
Bit rate : 640 kbps
Channel(s) : 6 channels
Channel positions : Front: L C R, Side: L R, LFE
Sampling rate : 48.0 kHz
Frame rate : 31.250 FPS (1536 spf)
Bit depth : 16 bits
Compression mode : Lossy
Stream size : 3.66 MiB (5%)
Service kind : Complete Main
Default : Yes
Alternate group : 1
Encoded date : UTC 2016-11-14 22:17:23
Tagged date : UTC 2016-11-14 22:17:23

1080P MP4百度云盘
游客,如果您要查看本帖隐藏内容请回复
沙发
发表于 2017-4-1 06:48 | 只看该作者
强烈支持楼主ing……
回复 支持 反对 使用道具 举报
板凳
发表于 2017-4-1 12:35 | 只看该作者
强烈支持楼主ing……
回复 支持 反对 使用道具 举报
地板
发表于 2017-4-1 19:09 | 只看该作者
精华内容,楼主V5!
回复 支持 反对 使用道具 举报
5#
发表于 2017-4-1 19:29 | 只看该作者
强烈支持楼主ing……
回复 支持 反对 使用道具 举报
6#
发表于 2017-4-1 21:09 | 只看该作者
谢谢分享。。。
回复 支持 反对 使用道具 举报
7#
发表于 2017-4-1 23:43 | 只看该作者
小手一抖,金币拿走。
回复 支持 反对 使用道具 举报
8#
发表于 2017-4-1 23:55 | 只看该作者
dgip感觉不错的样子!下载了!谢谢
回复 支持 反对 使用道具 举报
9#
发表于 2017-4-2 00:01 | 只看该作者
强烈支持楼主ing……
回复 支持 反对 使用道具 举报
10#
发表于 2017-4-2 09:06 | 只看该作者
很给力,ZNDS有你更精彩!
回复 支持 反对 使用道具 举报
您需要登录后才可以回帖 登录 | 立即注册
本版积分规则
关闭

推荐应用 上一条 /6 下一条

Archiver|新帖|标签|软件|Sitemap|ZNDS优乐国际youle88官网 ( 浙ICP备14000780号 )
增值电信业务经营许可证:浙B2-20150411 丨 浙公网安备 33010802006145号 浙网文(2016)6491-366号 | GMT+8, 2017-11-21 02:55 , Processed in 0.074828 second(s), 23 queries , MemCache On.
Powered by Discuz! 监督举报:report#znds.com (请将#替换为@) © 2007-2017 ZNDS.Com
快速回复 返回顶部 返回列表

youle88

百度360搜索搜狗搜索