开启辅助访问
QQ登录 只需一步,快速开始
扫一扫,访问微社区
立即注册 找回密码
查看: 174983|回复: 1403
上一主题 下一主题
[4K视频]

[4K(超高清)自然纪录片]黄石国家公园的瀑布 2016[2160P/TS/28.6...

  [复制链接]
跳转到指定楼层
楼主
发表于 2017-7-12 16:02 | 只看该作者 |只看大图 回帖奖励 |倒序浏览 |阅读模式
本帖最后由 klpoij89 于 2017-7-12 16:06 编辑

[4K(超高清)自然纪录片]黄石国家公园的瀑布 2016
[2160P/TS/28.61GB]+[1440P/MKV/8.96GB]
(片长 : 2小时41分钟)
[4K(超高清)自然纪录片]黄石国家公园的瀑布 2016[2160P/TS/28.6... 黄石上下瀑布是由黄石河水侵蚀质地较软的岩石形成的。峡谷瀑布区在8字形公路,两个圆相接处的右端。黄石河,它由黄石峡谷汹涌而出,贯穿整个黄石国家公园。黄石河将山脉切穿而创造了神奇的黄石大峡谷。在阳光下,两峡壁的颜色从橙黄过渡到橘红,仿佛是两条曲折的彩带。黄石河流经黄色的峡谷,形成黄石瀑布壮丽的景观。

General
Unique ID : 180525562191746098437568368644424449463 (0x87CFF5667F703B20B746579C0957BDB7)
Complete name : WATERFALLS OF YELLOWSTONE - 4K Ultra HD _Мастер5.mkv
Format : Matroska
Format version : Version 4 / Version 2
File size : 8.96 GiB
Duration : 2 h 41 min
Overall bit rate : 7927 kbps
Movie name : WATERFALLS OF YELLOWSTONE - 4K Ultra HD _Мастер5
Encoded date : UTC 2017-05-06 17:27:46
Writing application : mkvmerge v8.1.0 ('Psychedelic Postcard') 32bit
Writing library : libebml v1.3.1 + libmatroska v1.4.2

Video
ID : 1
Format : AVC
Format/Info : Advanced Video Codec
Format profile : High@L5
Format settings, CABAC : Yes
Format settings, ReFrames : 3 frames
Codec ID : V_MPEG4/ISO/AVC
Duration : 2 h 41 min
Bit rate : 7799 kbps
Width : 2560 pixels
Height : 1440 pixels
Display aspect ratio : 16:9
Frame rate mode : Constant
Frame rate : 24.000 FPS
Color space : YUV
Chroma subsampling : 4:2:0
Bit depth : 8 bits
Scan type : Progressive
Bits/(Pixel*Frame) : 0.088
Stream size : 8.81 GiB (98%)
Title : WATERFALLS OF YELLOWSTONE - 4K Ultra HD _Мастер5
Default : Yes
Forced : No
Color range : Limited
Color primaries : BT.709
Transfer characteristics : BT.709
Matrix coefficients : BT.709

Audio
ID : 2
Format : AAC
Format/Info : Advanced Audio Codec
Format profile : LC
Codec ID : A_AAC
Duration : 2 h 41 min
Bit rate : 126 kbps
Channel(s) : 2 channels
Channel positions : Front: L R
Sampling rate : 44.1 kHz
Frame rate : 43.066 FPS (1024 spf)
Compression mode : Lossy
Stream size : 145 MiB (2%)
Default : Yes
Forced : No
[4K(超高清)自然纪录片]黄石国家公园的瀑布 2016[2160P/TS/28.6... [4K(超高清)自然纪录片]黄石国家公园的瀑布 2016[2160P/TS/28.6... [4K(超高清)自然纪录片]黄石国家公园的瀑布 2016[2160P/TS/28.6... [4K(超高清)自然纪录片]黄石国家公园的瀑布 2016[2160P/TS/28.6... [4K(超高清)自然纪录片]黄石国家公园的瀑布 2016[2160P/TS/28.6... [4K(超高清)自然纪录片]黄石国家公园的瀑布 2016[2160P/TS/28.6... [4K(超高清)自然纪录片]黄石国家公园的瀑布 2016[2160P/TS/28.6... [4K(超高清)自然纪录片]黄石国家公园的瀑布 2016[2160P/TS/28.6... [4K(超高清)自然纪录片]黄石国家公园的瀑布 2016[2160P/TS/28.6... [4K(超高清)自然纪录片]黄石国家公园的瀑布 2016[2160P/TS/28.6... [4K(超高清)自然纪录片]黄石国家公园的瀑布 2016[2160P/TS/28.6... 建议使用极速迅雷来高速下载!
播放器: Potplaye/MPC-HC/影音先锋

1440P 2KBT种子文件下载
游客,如果您要查看本帖隐藏内容请回复
2160P 4KBT种子文件下载
游客,如果您要查看本帖隐藏内容请回复
沙发
发表于 2017-7-12 16:35 | 只看该作者
强烈支持楼主ing……

点评

强烈支持  详情 回复 发表于 2017-8-24 10:37
回复 支持 反对 使用道具 举报
板凳
发表于 2017-7-12 19:02 | 只看该作者
小手一抖,金币拿走。
回复 支持 反对 使用道具 举报
地板
发表于 2017-7-12 19:52 | 只看该作者
强烈支持楼主ing……
回复 支持 反对 使用道具 举报
5#
发表于 2017-7-12 19:56 | 只看该作者
强烈支持楼主!谢谢分享。
回复 支持 反对 使用道具 举报
6#
发表于 2017-7-12 20:58 | 只看该作者
谢谢分享
回复 支持 反对 使用道具 举报
7#
发表于 2017-7-13 01:51 | 只看该作者
出初入门 多多指教
回复 支持 反对 使用道具 举报
8#
发表于 2017-7-13 04:57 | 只看该作者
强烈支持楼主ing……
回复 支持 反对 使用道具 举报
9#
发表于 2017-7-13 06:56 | 只看该作者
强烈支持楼主ing……
回复 支持 反对 使用道具 举报
10#
发表于 2017-7-13 09:20 | 只看该作者
感谢楼主分享
回复 支持 反对 使用道具 举报
您需要登录后才可以回帖 登录 | 立即注册
本版积分规则
关闭

推荐应用 上一条 /6 下一条

Archiver|新帖|标签|软件|Sitemap|ZNDS优乐国际youle88官网 ( 浙ICP备14000780号 )
增值电信业务经营许可证:浙B2-20150411 丨 浙公网安备 33010802006145号 浙网文(2016)6491-366号 | GMT+8, 2017-11-22 16:53 , Processed in 0.050089 second(s), 8 queries , MemCache On.
Powered by Discuz! 监督举报:report#znds.com (请将#替换为@) © 2007-2017 ZNDS.Com
快速回复 返回顶部 返回列表

youle88

百度360搜索搜狗搜索