开启辅助访问
QQ登录 只需一步,快速开始
扫一扫,访问微社区
立即注册 找回密码
查看: 30591|回复: 243
上一主题 下一主题
[4K视频]

[4K足球赛]2017年欧洲超级杯(皇家马德里 VS 曼联)(2017-08-08)[21...

  [复制链接]
跳转到指定楼层
楼主
发表于 2017-8-11 15:36 | 只看该作者 |只看大图 回帖奖励 |倒序浏览 |阅读模式
本帖最后由 klpoij89 于 2017-8-14 01:56 编辑

[4K足球赛]2017年欧洲超级杯(皇家马德里 VS 曼联)(2017-08-08)[2160P/MKV/22.2GB]
(2小时4分钟全场比赛+颁奖仪式)
[4K足球赛]2017年欧洲超级杯(皇家马德里 VS 曼联)(2017-08-08)[21... General
Unique ID : 195712052438260441729891066607473234844 (0x933CC52D95F28BB3A2958DF1630B939C)
Complete name : RMA-MU.2160p.08.08.2017-Nikolay_-_-.mkv
Format : Matroska
Format version : Version 4 / Version 2
File size : 22.2 GiB
Duration : 2 h 4 min
Overall bit rate : 25.5 Mbps
Encoded date : UTC 2017-08-08 21:02:00
Writing application : mkvmerge v8.3.0 ('Over the Horizon') 64bit
Writing library : libebml v1.3.1 + libmatroska v1.4.2

Video
ID : 1
Format : HEVC
Format/Info : High Efficiency Video Coding
Format profile : Main 10@L5.1@Main
Codec ID : V_MPEGH/ISO/HEVC
Duration : 2 h 4 min
Bit rate : 25.2 Mbps
Width : 3840 pixels
Height : 2160 pixels
Display aspect ratio : 16:9
Frame rate mode : Constant
Frame rate : 50.000 FPS
Color space : YUV
Chroma subsampling : 4:2:0
Bit depth : 10 bits
Bits/(Pixel*Frame) : 0.061
Stream size : 21.9 GiB (99%)
Default : Yes
Forced : No

Audio
ID : 2
Format : E-AC-3
Format/Info : Enhanced Audio Coding 3
Format settings, Endianness : Big
Codec ID : A_EAC3
Duration : 2 h 4 min
Bit rate mode : Constant
Bit rate : 256 kbps
Channel(s) : 6 channels
Channel positions : Front: L C R, Side: L R, LFE
Sampling rate : 48.0 kHz
Frame rate : 187.500 FPS (256 SPF)
Compression mode : Lossy
Delay relative to video : -520 ms
Stream size : 228 MiB (1%)
Service kind : Complete Main
Default : Yes
Forced : No
[4K足球赛]2017年欧洲超级杯(皇家马德里 VS 曼联)(2017-08-08)[21... [4K足球赛]2017年欧洲超级杯(皇家马德里 VS 曼联)(2017-08-08)[21... [4K足球赛]2017年欧洲超级杯(皇家马德里 VS 曼联)(2017-08-08)[21... [4K足球赛]2017年欧洲超级杯(皇家马德里 VS 曼联)(2017-08-08)[21... [4K足球赛]2017年欧洲超级杯(皇家马德里 VS 曼联)(2017-08-08)[21... [4K足球赛]2017年欧洲超级杯(皇家马德里 VS 曼联)(2017-08-08)[21... [4K足球赛]2017年欧洲超级杯(皇家马德里 VS 曼联)(2017-08-08)[21... [4K足球赛]2017年欧洲超级杯(皇家马德里 VS 曼联)(2017-08-08)[21... [4K足球赛]2017年欧洲超级杯(皇家马德里 VS 曼联)(2017-08-08)[21... [4K足球赛]2017年欧洲超级杯(皇家马德里 VS 曼联)(2017-08-08)[21... [4K足球赛]2017年欧洲超级杯(皇家马德里 VS 曼联)(2017-08-08)[21... [4K足球赛]2017年欧洲超级杯(皇家马德里 VS 曼联)(2017-08-08)[21... [4K足球赛]2017年欧洲超级杯(皇家马德里 VS 曼联)(2017-08-08)[21... [4K足球赛]2017年欧洲超级杯(皇家马德里 VS 曼联)(2017-08-08)[21... [4K足球赛]2017年欧洲超级杯(皇家马德里 VS 曼联)(2017-08-08)[21... [4K足球赛]2017年欧洲超级杯(皇家马德里 VS 曼联)(2017-08-08)[21... [4K足球赛]2017年欧洲超级杯(皇家马德里 VS 曼联)(2017-08-08)[21... [4K足球赛]2017年欧洲超级杯(皇家马德里 VS 曼联)(2017-08-08)[21... [4K足球赛]2017年欧洲超级杯(皇家马德里 VS 曼联)(2017-08-08)[21... [4K足球赛]2017年欧洲超级杯(皇家马德里 VS 曼联)(2017-08-08)[21... [4K足球赛]2017年欧洲超级杯(皇家马德里 VS 曼联)(2017-08-08)[21... [4K足球赛]2017年欧洲超级杯(皇家马德里 VS 曼联)(2017-08-08)[21... [4K足球赛]2017年欧洲超级杯(皇家马德里 VS 曼联)(2017-08-08)[21... [4K足球赛]2017年欧洲超级杯(皇家马德里 VS 曼联)(2017-08-08)[21... [4K足球赛]2017年欧洲超级杯(皇家马德里 VS 曼联)(2017-08-08)[21... [4K足球赛]2017年欧洲超级杯(皇家马德里 VS 曼联)(2017-08-08)[21... [4K足球赛]2017年欧洲超级杯(皇家马德里 VS 曼联)(2017-08-08)[21... [4K足球赛]2017年欧洲超级杯(皇家马德里 VS 曼联)(2017-08-08)[21... [4K足球赛]2017年欧洲超级杯(皇家马德里 VS 曼联)(2017-08-08)[21... 建议使用极速迅雷来高速下载!
播放器: Potplaye/MPC-HC/影音先锋

BT种子文件下载
游客,如果您要查看本帖隐藏内容请回复
沙发
发表于 2017-8-11 15:37 | 只看该作者
这个好
回复 支持 反对 使用道具 举报
板凳
发表于 2017-8-11 18:49 | 只看该作者
高手在当贝啊!学习了
回复 支持 反对 使用道具 举报
地板
发表于 2017-8-11 20:30 | 只看该作者
好!!!!!!
回复 支持 反对 使用道具 举报
5#
发表于 2017-8-12 00:11 | 只看该作者
先把机器刷成砖,再把砖头刷成机器,我都佩服自己在ZNDS学到的刷机技术!
回复 支持 反对 使用道具 举报
6#
发表于 2017-8-12 08:54 | 只看该作者
感谢分享
回复 支持 反对 使用道具 举报
7#
发表于 2017-8-12 09:06 | 只看该作者
BT种子文件下载
回复 支持 反对 使用道具 举报
8#
发表于 2017-8-12 11:23 | 只看该作者
不得了
回复 支持 反对 使用道具 举报
9#
发表于 2017-8-12 11:42 | 只看该作者
dfvsdfvsdvsvsdvsdvdsrv
回复 支持 反对 使用道具 举报
10#
发表于 2017-8-12 13:27 | 只看该作者
4K
我来了
回复 支持 反对 使用道具 举报
您需要登录后才可以回帖 登录 | 立即注册
本版积分规则
关闭

推荐应用 上一条 /6 下一条

Archiver|新帖|标签|软件|Sitemap|ZNDS优乐国际youle88官网 ( 浙ICP备14000780号 )
增值电信业务经营许可证:浙B2-20150411 丨 浙公网安备 33010802006145号 浙网文(2016)6491-366号 | GMT+8, 2017-11-19 05:28 , Processed in 0.106376 second(s), 27 queries , MemCache On.
Powered by Discuz! 监督举报:report#znds.com (请将#替换为@) © 2007-2017 ZNDS.Com
快速回复 返回顶部 返回列表

youle88

百度360搜索搜狗搜索