开启辅助访问
QQ登录 只需一步,快速开始
扫一扫,访问微社区
立即注册 找回密码
查看: 7823|回复: 49
上一主题 下一主题
[4K视频]

4K电视开播!台湾4K公视UHD短片《德国淮杨乡村》60fps/H265/2160p

  [复制链接]
跳转到指定楼层
楼主
发表于 2017-9-10 13:14 | 只看该作者 |只看大图 回帖奖励 |倒序浏览 |阅读模式
4K电视开播!台湾4K公视UHD短片《德国淮杨乡村》60fps/H265/2160p
4K电视开播!台湾4K公视UHD短片《德国淮杨乡村》60fps/H265/2160p
4K电视开播!台湾4K公视UHD短片《德国淮杨乡村》60fps/H265/2160p
4K电视开播!台湾4K公视UHD短片《德国淮杨乡村》60fps/H265/2160p
4K电视开播!台湾4K公视UHD短片《德国淮杨乡村》60fps/H265/2160p

台湾4K公视UHD演示短片《德国淮杨乡村》风景优美、惬意![60fps/H.265/2160p]

  • General
  • Complete name                  : D:\4K公视UHD-欧盟-德国淮杨乡村.mkv
  • Format                         : Matroska
  • Format version                 : Version 4 / Version 2
  • File size                      : 407 MiB
  • Duration                       : 4 min 21 s
  • Overall bit rate               : 13.1 Mb/s
  • Encoded date                   : UTC 2017-08-10 08:45:11
  • Writing application            : mkvmerge v9.2.0 ('Photograph') 64bit
  • Writing library                : libebml v1.3.3 + libmatroska v1.4.4

  • Video
  • ID                             : 1
  • Format                         : HEVC
  • Format/Info                    : High Efficiency Video Coding
  • Codec ID                       : V_MPEGH/ISO/HEVC
  • Duration                       : 4 min 21 s
  • Bit rate                       : 13.0 Mb/s
  • Width                          : 3 840 pixels
  • Height                         : 2 160 pixels
  • Display aspect ratio           : 16:9
  • Frame rate mode                : Constant
  • Frame rate                     : 59.940 (60000/1001) FPS
  • Bits/(Pixel*Frame)             : 0.026
  • Stream size                    : 404 MiB (99%)
  • Default                        : Yes
  • Forced                         : No

  • Audio
  • ID                             : 2
  • Format                         : AAC
  • Format/Info                    : Advanced Audio Codec
  • Format profile                 : HE-AAC / LC
  • Codec ID                       : A_AAC
  • Duration                       : 4 min 20 s
  • Bit rate                       : 93.9 kb/s
  • Channel(s)                     : 2 channels
  • Channel positions              : Front: L R
  • Sampling rate                  : 48.0 kHz / 24.0 kHz
  • Frame rate                     : 23.438 FPS (1024 spf)
  • Compression mode               : Lossy
  • Delay relative to video        : 128 ms
  • Stream size                    : 2.91 MiB (1%)
  • Default                        : Yes
  • Forced                         : No
  • 复制代码


    下载地址:
    游客,如果您要查看本帖隐藏内容请回复

    沙发
    发表于 2017-9-10 14:07 | 只看该作者
    看一下,感谢分享。
    回复 支持 反对 使用道具 举报
    板凳
    发表于 2017-9-10 14:32 | 只看该作者
    楼主辛苦了
    回复 支持 反对 使用道具 举报
    地板
    发表于 2017-9-10 15:40 | 只看该作者
    又见一个好帖,果断先马克mark收藏了!
    回复 支持 反对 使用道具 举报
    5#
    发表于 2017-9-10 15:41 | 只看该作者
    老铁666!必须支持一波!
    回复 支持 反对 使用道具 举报
    6#
    发表于 2017-9-10 16:37 | 只看该作者
    楼主用心了,内容非常精彩。
    回复 支持 反对 使用道具 举报
    7#
    发表于 2017-9-10 16:58 | 只看该作者
    此楼主日后必成大器!不是一语双关...
    回复 支持 反对 使用道具 举报
    8#
    发表于 2017-9-10 20:37 | 只看该作者
    必须支持一波!
    回复 支持 反对 使用道具 举报
    9#
    发表于 2017-9-10 22:09 | 只看该作者
    老铁666!必须支持一波!
    回复 支持 反对 使用道具 举报
    10#
    发表于 2017-9-11 21:25 | 只看该作者
    最近人工智能电视很火!
    回复 支持 反对 使用道具 举报
    您需要登录后才可以回帖 登录 | 立即注册
    本版积分规则
    关闭

    推荐应用 上一条 /5 下一条

    Archiver|新帖|标签|软件|Sitemap|ZNDS优乐国际youle88官网 ( 浙ICP备14000780号 )
    增值电信业务经营许可证:浙B2-20150411 丨 浙公网安备 33010802006145号 浙网文(2016)6491-366号 | GMT+8, 2017-9-27 04:05 , Processed in 0.064237 second(s), 16 queries , MemCache On.
    Powered by Discuz! 监督举报:report#znds.com (请将#替换为@) © 2007-2017 ZNDS.Com
    快速回复 返回顶部 返回列表

    youle88

    百度360搜索搜狗搜索