开启辅助访问
QQ登录 只需一步,快速开始
扫一扫,访问微社区
立即注册 找回密码
查看: 98886|回复: 520
上一主题 下一主题
[4K视频]

索尼 BRAVIA OLED A1 4K HDR 演示片 - Food Fizzle (HEVC 60fps 10bit)[2160P...

  [复制链接]
跳转到指定楼层
楼主
发表于 2017-9-21 07:06 | 只看该作者 |只看大图 回帖奖励 |倒序浏览 |阅读模式
本帖最后由 klpoij89 于 2017-9-21 07:36 编辑

索尼 BRAVIA OLED A1 4K HDR 演示片 - Food Fizzle (HEVC 60fps 10bit)
[2160P/MP4/726MB]
(OLED电视专用4K演示片)
索尼 BRAVIA OLED A1 4K HDR 演示片 - Food Fizzle (HEVC 60fps 10bit)[2160P... 索尼 BRAVIA OLED A1 4K HDR 演示片 - Food Fizzle (HEVC 60fps 10bit)[2160P... 索尼 BRAVIA OLED A1 4K HDR 演示片 - Food Fizzle (HEVC 60fps 10bit)[2160P... 索尼 BRAVIA OLED A1 4K HDR 演示片 - Food Fizzle (HEVC 60fps 10bit)[2160P... 索尼 BRAVIA OLED A1 4K HDR 演示片 - Food Fizzle (HEVC 60fps 10bit)[2160P... 索尼 BRAVIA OLED A1 4K HDR 演示片 - Food Fizzle (HEVC 60fps 10bit)[2160P... 索尼 BRAVIA OLED A1 4K HDR 演示片 - Food Fizzle (HEVC 60fps 10bit)[2160P... 索尼 BRAVIA OLED A1 4K HDR 演示片 - Food Fizzle (HEVC 60fps 10bit)[2160P... 索尼 BRAVIA OLED A1 4K HDR 演示片 - Food Fizzle (HEVC 60fps 10bit)[2160P... 索尼 BRAVIA OLED A1 4K HDR 演示片 - Food Fizzle (HEVC 60fps 10bit)[2160P... 索尼 BRAVIA OLED A1 4K HDR 演示片 - Food Fizzle (HEVC 60fps 10bit)[2160P... 索尼 BRAVIA OLED A1 4K HDR 演示片 - Food Fizzle (HEVC 60fps 10bit)[2160P... 索尼 BRAVIA OLED A1 4K HDR 演示片 - Food Fizzle (HEVC 60fps 10bit)[2160P...

General
Complete name : SONY.BRAVIA.OLED.4K.HDR.DEMO_Food .Fizzle.mp4
Format : MPEG-4
Format profile : Base Media / Version 2
Codec ID : mp42 (mp42/iso4)
File size : 726 MiB
Duration : 1 min 22 s
Overall bit rate : 74.2 Mbps
Encoded date : UTC 2017-02-27 02:06:58
Tagged date : UTC 2017-02-27 02:06:58

Video
ID : 1
Format : HEVC
Format/Info : High Efficiency Video Coding
Format profile : Main 10@L5.1@High
Codec ID : hvc1
Codec ID/Info : High Efficiency Video Coding
Duration : 1 min 22 s
Bit rate : 74.0 Mbps
Width : 3840 pixels
Height : 2160 pixels
Display aspect ratio : 16:9
Frame rate mode : Constant
Frame rate : 59.940 (60000/1001) FPS
Color space : YUV
Chroma subsampling : 4:2:0 (Type 2)
Bit depth : 10 bits
Bits/(Pixel*Frame) : 0.149
Stream size : 725 MiB (100%)
Encoded date : UTC 2017-02-27 02:06:58
Tagged date : UTC 2017-02-27 02:06:58
Color range : Limited
Color primaries : BT.2020
Transfer characteristics : SMPTE ST 2084
Matrix coefficients : BT.2020 non-constant
Mastering display color primar : R: x=1.000000 y=1.000000, G: x=1.000000 y=1.000000, B: x=1.000000 y=1.000000, White point: x=1.000000 y=1.000000
Mastering display luminance : min: 0.1000 cd/m2, max: 0.5000 cd/m2

Audio
ID : 2
Format : AAC
Format/Info : Advanced Audio Codec
Format profile : LC
Codec ID : 40
Duration : 1 min 22 s
Bit rate mode : Constant
Bit rate : 192 kbps
Channel(s) : 2 channels
Channel positions : Front: L R
Sampling rate : 48.0 kHz
Frame rate : 46.875 FPS (1024 SPF)
Compression mode : Lossy
Stream size : 1.88 MiB (0%)
Language : English
Encoded date : UTC 2017-02-27 02:06:58
Tagged date : UTC 2017-02-27 02:06:58
Demo Ultra HD & HDR (HDR10)by Sony(for Sony OLED A1 Demo)
HDR ! So your TV has to be able to play this format !
OLED 4K HDR电视上观看才能体验最佳效果!
播放器 : Potplaye(2017版本)

MP4百度云盘
游客,如果您要查看本帖隐藏内容请回复

评分

参与人数 2威望 +16 金币 +30 Z币 +13 收起 理由
hao501802766 + 6 + 10 + 3 这资源很适合测试设备性能,感谢分享!.
彼此的羁绊 + 10 + 20 + 10 超有食欲,资源很不错啊,感谢分享!.
查看全部评分
沙发
发表于 2017-9-21 07:10 | 只看该作者
此楼主日后必成大器!不是一语双关...
回复 支持 反对 使用道具 举报
板凳
发表于 2017-9-21 09:21 | 只看该作者
又见一个好帖,果断先马克mark收藏了!
回复 支持 反对 使用道具 举报
地板
发表于 2017-9-21 09:37 | 只看该作者
图片好漂亮
回复 支持 反对 使用道具 举报
5#
发表于 2017-9-21 09:43 | 只看该作者
老铁666!必须支持一波!
回复 支持 反对 使用道具 举报
6#
发表于 2017-9-21 10:14 | 只看该作者
高手在当贝啊!学习了
回复 支持 反对 使用道具 举报
7#
发表于 2017-9-21 10:37 | 只看该作者
shshshshshshshshshshshshshshshshshshsh
回复 支持 反对 使用道具 举报
8#
发表于 2017-9-21 11:23 | 只看该作者
d d d d d d d d d d d d
回复 支持 反对 使用道具 举报
9#
发表于 2017-9-21 11:32 | 只看该作者
66666666666666666666
回复 支持 反对 使用道具 举报
10#
发表于 2017-9-21 11:58 | 只看该作者
不错
回复 支持 反对 使用道具 举报
您需要登录后才可以回帖 登录 | 立即注册
本版积分规则
关闭

推荐应用 上一条 /6 下一条

Archiver|新帖|标签|软件|Sitemap|ZNDS优乐国际youle88官网 ( 浙ICP备14000780号 )
增值电信业务经营许可证:浙B2-20150411 丨 浙公网安备 33010802006145号 浙网文(2016)6491-366号 | GMT+8, 2017-12-18 20:44 , Processed in 0.055975 second(s), 9 queries , MemCache On.
Powered by Discuz! 监督举报:report#znds.com (请将#替换为@) © 2007-2017 ZNDS.Com
快速回复 返回顶部 返回列表

youle88

百度360搜索搜狗搜索